<?xml version="1.0" standalone="no"?>
<!DOCTYPE svg PUBLIC "-//W3C//DTD SVG 1.1//EN" "http://www.w3.org/Graphics/SVG/1.1/DTD/svg11.dtd" >
<svg xmlns="http://www.w3.org/2000/svg">
<metadata>Generated by IcoMoon</metadata>
<defs>
<font id="hob-icons" horiz-adv-x="1024">
<font-face units-per-em="1024" ascent="960" descent="-64" />
<missing-glyph horiz-adv-x="1024" />
<glyph unicode="&#x20;" horiz-adv-x="512" d="" />
<glyph unicode="&#xe900;" glyph-name="lock" d="M281.6 567.467h460.8c56.554 0 102.4-45.846 102.4-102.4v0-332.8c0-56.554-45.846-102.4-102.4-102.4v0h-460.8c-56.554 0-102.4 45.846-102.4 102.4v0 332.8c0 56.554 45.846 102.4 102.4 102.4v0zM742.4 98.133c18.851 0 34.133 15.282 34.133 34.133v0 332.8c0 18.851-15.282 34.133-34.133 34.133v0h-460.8c-18.851 0-34.133-15.282-34.133-34.133v0-332.8c0-18.851 15.282-34.133 34.133-34.133v0zM682.667 499.2c-18.851 0-34.133 15.282-34.133 34.133v0 128c0 75.405-61.128 136.533-136.533 136.533s-136.533-61.128-136.533-136.533v0-128c0-18.851-15.282-34.133-34.133-34.133s-34.133 15.282-34.133 34.133v0 128c0 113.108 91.692 204.8 204.8 204.8s204.8-91.692 204.8-204.8v0-128c0-18.851-15.282-34.133-34.133-34.133v0z" />
<glyph unicode="&#xe901;" glyph-name="arrow-down" d="M401.382 247.39c0.007 30.547 12.393 58.2 32.415 78.216l401.369 401.369c20.019 20.013 47.672 32.391 78.216 32.391s58.197-12.378 78.216-32.392v0c20.013-20.019 32.391-47.672 32.391-78.216s-12.378-58.197-32.392-78.216l-401.369-401.369c-20.019-20.013-47.672-32.391-78.216-32.391-61.091 0-110.617 49.518-110.631 110.606v0.001zM0.013 648.759c0.007 30.547 12.393 58.2 32.415 78.216v0c20.019 20.013 47.672 32.391 78.216 32.391s58.197-12.378 78.216-32.392l401.369-401.369c20.013-20.019 32.391-47.672 32.391-78.216s-12.378-58.197-32.392-78.216v0c-20.019-20.013-47.672-32.391-78.216-32.391s-58.197 12.378-78.216 32.392l-401.369 401.369c-20.022 20.016-32.408 47.669-32.415 78.215v0.001z" />
<glyph unicode="&#xe902;" glyph-name="arrow-up" d="M401.382 648.758c0.007-30.547 12.393-58.2 32.415-78.216l401.369-401.369c20.019-20.013 47.672-32.391 78.216-32.391s58.197 12.378 78.216 32.392v0c20.013 20.019 32.391 47.672 32.391 78.216s-12.378 58.197-32.392 78.216l-401.369 401.369c-20.019 20.013-47.672 32.391-78.216 32.391-61.091 0-110.617-49.518-110.631-110.606v-0.001zM0.013 247.389c0.007-30.547 12.393-58.2 32.415-78.216v0c20.019-20.013 47.672-32.391 78.216-32.391s58.197 12.378 78.216 32.392l401.369 401.369c20.013 20.019 32.391 47.672 32.391 78.216s-12.378 58.197-32.392 78.216v0c-20.019 20.013-47.672 32.391-78.216 32.391s-58.197-12.378-78.216-32.392l-401.369-401.369c-20.022-20.016-32.408-47.669-32.415-78.215v-0.001z" />
<glyph unicode="&#xe903;" glyph-name="arrow-left" horiz-adv-x="623" d="M110.631 558.705c30.547-0.007 58.2-12.393 78.216-32.415l401.369-401.369c20.013-20.019 32.391-47.672 32.391-78.216s-12.378-58.197-32.392-78.216v0c-20.019-20.013-47.672-32.391-78.216-32.391s-58.197 12.378-78.216 32.392l-401.369 401.369c-20.013 20.019-32.391 47.672-32.391 78.216 0 61.091 49.518 110.617 110.606 110.631h0.001zM512 960.074c30.547-0.007 58.2-12.393 78.216-32.415v0c20.013-20.019 32.391-47.672 32.391-78.216s-12.378-58.197-32.392-78.216l-401.369-401.369c-20.019-20.013-47.672-32.391-78.216-32.391s-58.197 12.378-78.216 32.392v0c-20.013 20.019-32.391 47.672-32.391 78.216s12.378 58.197 32.392 78.216l401.369 401.369c20.016 20.022 47.669 32.408 78.215 32.415h0.001z" />
<glyph unicode="&#xe904;" glyph-name="arrow-right" horiz-adv-x="623" d="M512 337.443c-30.547 0.007-58.2 12.393-78.216 32.415l-401.369 401.369c-20.013 20.019-32.391 47.672-32.391 78.216s12.378 58.197 32.392 78.216v0c20.019 20.013 47.672 32.391 78.216 32.391s58.197-12.378 78.216-32.392l401.369-401.369c20.013-20.019 32.391-47.672 32.391-78.216 0-61.091-49.518-110.617-110.606-110.631h-0.001zM110.631-63.926c-30.547 0.007-58.2 12.393-78.216 32.415v0c-20.013 20.019-32.391 47.672-32.391 78.216s12.378 58.197 32.392 78.216l401.369 401.369c20.019 20.013 47.672 32.391 78.216 32.391s58.197-12.378 78.216-32.392v0c20.013-20.019 32.391-47.672 32.391-78.216s-12.378-58.197-32.392-78.216l-401.369-401.369c-20.016-20.022-47.669-32.408-78.215-32.415h-0.001z" />
<glyph unicode="&#xe905;" glyph-name="cross" horiz-adv-x="1179" d="M1133.864-63.926c-11.342 0.013-21.711 4.167-29.678 11.032l0.059-0.050-1088.342 932.864c-9.759 8.406-15.899 20.779-15.899 34.586 0 11.357 4.155 21.744 11.028 29.724l-0.050-0.059c8.406 9.759 20.779 15.899 34.586 15.899 11.357 0 21.744-4.155 29.724-11.028l-0.059 0.050 1088.296-932.819c9.758-8.406 15.899-20.779 15.899-34.586 0-25.165-20.399-45.565-45.563-45.568v0zM45.568-63.926c-0.012 0-0.027 0-0.042 0-13.809 0-26.183 6.142-34.54 15.844l-0.050 0.059c-6.823 7.92-10.978 18.307-10.978 29.664 0 13.807 6.141 26.18 15.84 34.536l0.059 0.050 1088.387 932.864c7.92 6.823 18.307 10.978 29.664 10.978 13.807 0 26.18-6.141 34.536-15.84l0.050-0.059c6.823-7.92 10.978-18.307 10.978-29.664 0-13.807-6.141-26.18-15.84-34.536l-0.059-0.050-1088.342-932.864c-7.92-6.824-18.307-10.981-29.664-10.982v0z" />
<glyph unicode="&#xe906;" glyph-name="edit" d="M640.040 73.275h-384.013c-65.601 0.061-118.765 53.225-118.826 118.82v383.966c0.061 65.601 53.225 118.765 118.82 118.826h127.992c18.492 0 33.483-14.991 33.483-33.483s-14.991-33.483-33.483-33.483v0h-127.987c-28.629-0.030-51.828-23.23-51.859-51.856v-384.016c0.030-28.629 23.23-51.828 51.856-51.859h384.016c28.629 0.030 51.828 23.23 51.859 51.856v128.043c0 18.492 14.991 33.483 33.483 33.483s33.483-14.991 33.483-33.483v0-127.987c-0.061-65.601-53.225-118.765-118.82-118.826h-0.006zM512 286.604h-127.987c-18.492 0-33.483 14.991-33.483 33.483v0 127.987c0 0.018 0 0.039 0 0.060 0 9.245 3.746 17.614 9.804 23.673l362.691 362.691c22.664 24.048 54.728 39.022 90.29 39.022 68.466 0 123.969-55.503 123.969-123.969 0-35.535-14.951-67.578-38.906-90.181l-0.061-0.057-362.691-362.691c-6.020-6.125-14.37-9.944-23.612-10.018h-0.014zM417.497 353.571h80.628l352.887 352.887c10.317 10.317 16.699 24.57 16.699 40.314 0 31.487-25.525 57.012-57.012 57.012-15.744 0-29.997-6.381-40.314-16.699l-352.887-352.78zM810.671 585.275c-0.015 0-0.033 0-0.051 0-9.231 0-17.586 3.747-23.628 9.803l-127.988 127.988c-6.061 6.060-9.81 14.432-9.81 23.679s3.749 17.62 9.81 23.679v0c6.060 6.061 14.432 9.81 23.679 9.81s17.62-3.749 23.679-9.81l127.987-127.987c6.061-6.060 9.81-14.432 9.81-23.679 0-18.492-14.991-33.483-33.483-33.483-0.002 0-0.004 0-0.007 0v0z" />
<glyph unicode="&#xe907;" glyph-name="euro" horiz-adv-x="982" d="M240.182 86.196c-49.096 48.804-88.286 107.511-114.33 172.882l-1.209 3.439h-62.878c-34.003 0-61.568 27.565-61.568 61.568s27.565 61.568 61.568 61.568h32.16c-2.419 18.691-3.799 40.312-3.799 62.255 0 0.058 0 0.116 0 0.173v-0.008c0.002 21.978 1.358 43.637 3.99 64.9l-0.257-2.546h-32.094c-34.058 0-61.667 27.609-61.667 61.667s27.609 61.667 61.667 61.667h62.878c76.637 192.714 261.546 326.465 477.694 326.465 141.309 0 269.265-57.165 362.006-149.632l-0.012 0.012c11.697-11.235 18.964-27.006 18.964-44.475 0-34.039-27.594-61.634-61.634-61.634-17.452 0-33.21 7.254-44.423 18.91l-0.019 0.020c-70.419 70.308-167.643 113.786-275.021 113.786-146.772 0-274.571-81.232-340.892-201.19l-1.015-2.001h341.901c34.058 0 61.667-27.609 61.667-61.667s-27.609-61.667-61.667-61.667h-384.016c-3.154-18.754-4.956-40.36-4.956-62.387s1.802-43.633 5.267-64.679l-0.311 2.292h384.016c34.003 0 61.568-27.565 61.568-61.568s-27.565-61.568-61.568-61.568h-341.835c18.83-34.11 41.029-63.448 66.806-89.206l0.002-0.002c70.376-70.461 167.644-114.048 275.093-114.048s204.717 43.587 275.089 114.044l0.004 0.004c11.147 11.147 26.547 18.042 43.556 18.042 34.020 0 61.598-27.578 61.598-61.598 0-17.010-6.895-32.409-18.042-43.556v0c-92.607-92.786-220.637-150.187-362.074-150.187s-269.468 57.402-362.067 150.18l-0.008 0.008z" />
<glyph unicode="&#xe908;" glyph-name="facebook" horiz-adv-x="488" d="M89.055-63.872v510.81h-89.055v172.487c24.386 0 47.583 0.757 70.671 0 14.599-0.649 18.763 4.866 18.546 18.979-0.595 37.85-0.919 75.7 0.487 113.549 4.704 129.068 65.318 195.846 193.521 205.47 67.373 5.137 135.178 0.865 205.038 0.865v-170.216h-84.351c-72.239 0-83.973-11.679-84.351-83.432 0-27.522 0-54.99 0-85.054h157.401l-18.546-171.46h-139.179v-512.216z" />
<glyph unicode="&#xe909;" glyph-name="identity" horiz-adv-x="1191" d="M150.496-64c-83.057 0.085-150.369 67.371-150.496 150.41v721.010c0.212 84.261 68.525 152.496 152.795 152.58h887.653c83.025-0.127 150.295-67.397 150.422-150.41v-723.168c-0.085-83.042-67.38-150.337-150.414-150.422h-0.008zM78.523 807.419v-720.998c0.042-39.748 32.231-71.963 71.965-72.048h889.961c39.725 0.127 71.889 32.317 71.973 72.040v723.164c-0.085 39.701-32.267 71.857-71.969 71.899h-887.426c0 0-0.001 0-0.001 0-40.975 0-74.217-33.111-74.428-74.037v-0.020zM186.446 161.149c-14.766 5.925-25.003 20.121-25.003 36.708 0 5.136 0.982 10.043 2.767 14.543l-0.093-0.267c12.597 30.864 30.831 57.075 53.622 78.49l0.116 0.108c38.366 35.565 89.915 57.385 146.559 57.385 0.076 0 0.152 0 0.228 0h71.812c90.318-0.077 167.645-55.614 199.769-134.391l0.52-1.443c1.811-4.352 2.862-9.408 2.862-14.709 0-16.42-10.090-30.484-24.408-36.33l-0.262-0.095c-4.252-1.649-9.172-2.605-14.316-2.605-0.043 0-0.086 0-0.13 0h0.007c-0.016 0-0.035 0-0.054 0-16.449 0-30.538 10.106-36.396 24.448l-0.095 0.262c-7.978 19.612-19.546 36.269-34.016 49.874l-0.073 0.068c-24.414 22.604-57.203 36.471-93.23 36.471-0.063 0-0.126 0-0.189 0h-71.814c-0.048 0-0.106 0-0.163 0-36.008 0-68.778-13.867-93.26-36.552l0.089 0.081c-14.575-13.667-26.169-30.324-33.826-49.012l-0.337-0.931c-5.953-14.604-20.042-24.711-36.491-24.711-0.019 0-0.038 0-0.057 0h0.003c-5.11 0.004-9.996 0.96-14.491 2.699l0.275-0.094zM762.381 325.414c-21.663 0-39.224 17.561-39.224 39.224s17.561 39.224 39.224 39.224v0h133.452c21.663 0 39.224-17.561 39.224-39.224s-17.561-39.224-39.224-39.224v0zM236.462 573.19c0 90.763 73.578 164.34 164.34 164.34s164.34-73.578 164.34-164.34c0-90.763-73.578-164.34-164.34-164.34v0c-90.726 0.127-164.245 73.62-164.415 164.324v0.016zM314.911 573.19c0.042-47.405 38.481-85.817 85.892-85.817 47.437 0 85.892 38.455 85.892 85.892s-38.455 85.891-85.891 85.892v0c-47.478 0-85.966-38.488-85.966-85.966v0zM762.381 547.809c-21.663 0-39.224 17.561-39.224 39.224s17.561 39.224 39.224 39.224v0h222.395c21.663 0 39.224-17.561 39.224-39.224s-17.561-39.224-39.224-39.224v0z" />
<glyph unicode="&#xe90a;" glyph-name="search" d="M398.222 960.074c219.932 0 398.222-178.29 398.222-398.222s-178.29-398.222-398.222-398.222c-219.932 0-398.222 178.29-398.222 398.222v0c0.259 219.828 178.395 397.964 398.198 398.222h0.024zM398.222 277.407c157.094 0 284.444 127.35 284.444 284.444s-127.35 284.444-284.444 284.444c-157.094 0-284.444-127.35-284.444-284.444v0c0.173-157.025 127.42-284.272 284.428-284.444h0.016zM967.111-63.926c-0.004 0-0.008 0-0.013 0-15.702 0-29.914 6.379-40.187 16.686l-303.409 303.409c-10.28 10.292-16.637 24.505-16.637 40.201s6.357 29.909 16.638 40.202l-0.001-0.001c10.292 10.28 24.505 16.637 40.201 16.637s29.909-6.357 40.202-16.638l303.406-303.406c10.28-10.292 16.637-24.504 16.637-40.202 0-31.401-25.442-56.86-56.836-56.889h-0.003z" />
<glyph unicode="&#xe90b;" glyph-name="settings" horiz-adv-x="996" d="M424.053-63.68c-0.009 0-0.020 0-0.031 0-45.876 0-83.913 33.563-90.897 77.473l-0.069 0.524-11.398 78.613c-0.717 1.060-1.727 1.872-2.915 2.327l-0.042 0.014c-15.979 8.156-29.14 15.891-41.83 24.282l1.6-0.994c-0.867 0.627-1.911 1.063-3.043 1.228l-0.038 0.004-75.101-29.819c-10.116-4.141-21.856-6.544-34.157-6.544-33.705 0-63.196 18.044-79.339 44.999l-0.233 0.42-74.423 127.037c-7.682 13.014-12.22 28.677-12.22 45.399 0 29.083 13.727 54.959 35.056 71.504l0.206 0.154 64.073 49.287c-0.678 9.18-1.047 17.805-1.047 26.061s0.37 16.819 1.047 26.184l-64.073 49.287c-21.495 16.688-35.195 42.532-35.195 71.577 0 16.756 4.56 32.448 12.507 45.901l-0.23-0.421 74.3 126.914c16.382 27.353 45.86 45.38 79.549 45.38 12.264 0 23.969-2.389 34.677-6.726l-0.619 0.222 74.855-29.695c0.048-0.002 0.104-0.002 0.161-0.002 1.193 0 2.294 0.394 3.179 1.060l-0.014-0.010c11.111 7.403 24.313 15.158 37.937 22.212l2.417 1.138c1.23 0.469 2.241 1.282 2.943 2.319l0.014 0.022 11.398 78.736c7.106 44.375 45.114 77.874 90.946 77.874 0.018 0 0.035 0 0.053 0h148.167c0.009 0 0.020 0 0.031 0 45.876 0 83.913-33.563 90.897-77.473l0.069-0.524 11.398-78.49s0.801-1.417 2.834-2.341c16.010-8.066 29.256-15.805 42.003-24.237l-1.526 0.949c0.837-0.649 1.866-1.090 2.989-1.229l0.030-0.003 74.978 29.695c10.11 4.112 21.838 6.498 34.124 6.498 33.757 0 63.306-18.015 79.558-44.956l0.233-0.417 73.931-127.037c7.705-13.030 12.258-28.716 12.258-45.464 0-29.045-13.692-54.892-34.973-71.44l-0.204-0.153-64.135-49.287c0.678-9.303 0.986-17.805 0.986-26.184s0-16.696-0.986-26.061l64.135-49.287c21.465-16.724 35.139-42.577 35.139-71.624 0-16.734-4.538-32.407-12.451-45.857l0.231 0.424-74.3-126.914c-16.379-27.364-45.864-45.4-79.561-45.4-12.283 0-24.005 2.396-34.727 6.747l0.619-0.222-74.67 29.695c-1.307-0.055-2.498-0.51-3.465-1.243l0.015 0.011c-11.221-7.483-24.467-15.222-38.158-22.213l-2.319-1.075c-2.033-0.924-2.834-2.095-2.834-2.403l-11.398-78.551c-7.106-44.375-45.114-77.874-90.946-77.874-0.018 0-0.035 0-0.053 0h0.003zM327.636 192.059c8.622-5.77 18.937-11.904 29.564-17.527l1.98-0.956c26.684-13.153 45.84-38.065 50.814-67.783l0.075-0.541 11.398-78.674c0.215-1.266 1.303-2.218 2.614-2.218 0.012 0 0.025 0 0.037 0h148.167c0.026-0.001 0.057-0.001 0.088-0.001 1.299 0 2.375 0.957 2.56 2.205l0.002 0.014 11.398 78.551c4.941 30.435 24.24 55.496 50.59 68.331l0.545 0.24c12.168 6.209 22.246 12.163 31.943 18.644l-1.138-0.716c14.749 9.911 32.885 15.856 52.403 15.957h0.026c0.184 0.001 0.402 0.002 0.62 0.002 11.898 0 23.268-2.262 33.702-6.38l-0.623 0.217 74.67-29.634s0.554 0 0.924 0c0.037-0.002 0.079-0.003 0.123-0.003 0.912 0 1.703 0.522 2.089 1.284l0.006 0.013 74.362 126.729c0.232 0.363 0.37 0.806 0.37 1.281 0 0.821-0.412 1.546-1.040 1.979l-0.008 0.005-83.542 64.689c-10.404 8.088-17.034 20.606-17.034 34.672 0 1.916 0.123 3.803 0.362 5.654l-0.023-0.219c1.879 12.127 2.953 26.115 2.953 40.354s-1.073 28.227-3.144 41.887l0.191-1.534c-0.217 1.641-0.342 3.538-0.342 5.464 0 14.077 6.631 26.605 16.939 34.631l0.098 0.074 83.542 64.628c0.64 0.451 1.053 1.187 1.053 2.020 0 0.484-0.14 0.936-0.381 1.317l0.006-0.010-74.3 127.037c-0.452 0.772-1.274 1.285-2.217 1.294h-0.001c-0.167 0.031-0.359 0.049-0.554 0.049s-0.388-0.018-0.574-0.052l0.019 0.003-74.485-29.695c-9.812-3.901-21.182-6.163-33.080-6.163-0.218 0-0.436 0.001-0.654 0.002h0.034c-19.547 0.069-37.69 6.019-52.769 16.172l0.34-0.215c-8.558 5.765-18.636 11.719-29.055 17.106l-1.749 0.822c-26.922 13.041-46.237 38.118-51.065 68.045l-0.070 0.526-11.398 78.551c-0.186 1.262-1.262 2.219-2.561 2.219-0.031 0-0.062-0.001-0.092-0.002h-148.165c-0.010 0-0.023 0-0.035 0-1.311 0-2.399-0.952-2.612-2.203l-0.002-0.016-11.398-78.736c-5.029-30.283-24.191-55.222-50.348-68.144l-0.541-0.241c-12.518-6.417-22.877-12.554-32.848-19.226l1.181 0.744c-14.657-9.768-32.673-15.587-52.048-15.587-0.004 0-0.008 0-0.012 0v0c-0.291-0.003-0.634-0.005-0.978-0.005-11.754 0-22.98 2.264-33.264 6.379l0.604-0.213-74.67 29.695c-0.157 0.028-0.339 0.044-0.524 0.044s-0.366-0.016-0.542-0.047l0.019 0.003c-0.001 0-0.002 0-0.003 0-0.963 0-1.806-0.514-2.27-1.282l-0.007-0.012-74.3-127.099c-0.224-0.381-0.357-0.839-0.357-1.328 0-0.797 0.352-1.511 0.908-1.997l0.003-0.003 83.665-64.628c10.418-8.017 17.066-20.489 17.066-34.514 0-1.994-0.134-3.956-0.394-5.879l0.025 0.224c-1.838-12.126-2.888-26.117-2.888-40.354s1.050-28.228 3.076-41.901l-0.188 1.548c0.244-1.723 0.383-3.713 0.383-5.736 0-13.985-6.657-26.415-16.975-34.295l-0.104-0.077-83.665-64.689c-0.555-0.477-0.905-1.181-0.905-1.965 0-0.479 0.13-0.927 0.357-1.312l-0.007 0.012 74.3-127.099c0.409-0.777 1.21-1.298 2.134-1.298 0.051 0 0.102 0.002 0.153 0.005h-0.007c0.157-0.028 0.339-0.044 0.524-0.044s0.366 0.016 0.542 0.047l-0.019-0.003 74.67 29.634c9.822 3.901 21.203 6.162 33.113 6.162 0.185 0 0.37-0.001 0.554-0.002h-0.028c0.173 0.001 0.378 0.002 0.583 0.002 19.087 0 36.852-5.654 51.714-15.379l-0.361 0.222zM311.494 448.351c-0.008 0.659-0.013 1.438-0.013 2.218 0 103.098 83.577 186.675 186.675 186.675s186.675-83.577 186.675-186.675c0-103.098-83.577-186.675-186.675-186.675-0.039 0-0.077 0-0.116 0h0.006c-0.276-0.001-0.603-0.002-0.93-0.002-102.022 0-184.82 82.304-185.621 184.136v0.076zM400.58 448.351c-0.005-0.385-0.009-0.839-0.009-1.294 0-53.897 43.692-97.588 97.588-97.588s97.588 43.692 97.588 97.588c0 53.897-43.692 97.588-97.588 97.588-0.040 0-0.081 0-0.121 0h0.006c-0.074 0-0.161 0-0.249 0-53.454 0-96.832-43.141-97.216-96.505v-0.036z" />
<glyph unicode="&#xe90c;" glyph-name="share" horiz-adv-x="717" d="M450.319-17.15c-28.22 29.15-45.613 68.929-45.613 112.771 0 28.411 7.304 55.116 20.137 78.34l-0.423-0.835-183.986 141.068c-23.788-15.93-53.056-25.423-84.541-25.423-0.009 0-0.018 0-0.027 0h0.002c-86.666 1.629-156.297 72.269-156.297 159.171s69.631 157.541 156.144 159.169l0.152 0.002c0.046 0 0.1 0 0.155 0 31.323 0 60.438-9.454 84.646-25.665l-0.551 0.347 184.303 141.227c-12.414 22.396-19.721 49.111-19.721 77.531 0 43.825 17.374 83.592 45.61 112.79l-0.043-0.045c27.958 28.794 67.033 46.663 110.281 46.663s82.323-17.868 110.244-46.625l0.036-0.038c28.325-29.061 45.796-68.82 45.796-112.659s-17.471-83.598-45.829-112.693l0.033 0.034c-27.942-28.741-66.974-46.573-110.172-46.573-31.522 0-60.826 9.496-85.208 25.783l0.559-0.351-184.145-141.227c12.48-22.401 19.827-49.137 19.827-77.59s-7.347-55.19-20.248-78.417l0.421 0.827 184.092-141.121c23.816 15.913 53.106 25.395 84.61 25.395 43.186 0 82.211-17.817 110.125-46.502l0.034-0.035c28.328-29.070 45.801-68.837 45.801-112.685s-17.472-83.616-45.834-112.72l0.034 0.035c-27.914-28.888-67.002-46.825-110.281-46.825s-82.367 17.936-110.239 46.781l-0.042 0.044zM479.653 95.43c0-0.081 0-0.177 0-0.273 0-22.637 9.012-43.168 23.645-58.203l-0.018 0.019c14.532-14.966 34.842-24.253 57.321-24.253s42.789 9.287 57.302 24.234l0.019 0.020c14.694 15.101 23.755 35.747 23.755 58.51s-9.061 43.409-23.774 58.529l0.018-0.019c-14.548 14.909-34.841 24.156-57.293 24.156-21.796 0-41.556-8.714-55.988-22.848l0.014 0.013c-0.899-1.004-1.85-1.956-2.801-2.854-13.758-14.829-22.2-34.758-22.2-56.659 0-0.13 0-0.261 0.001-0.391v0.020zM75 447.968c0.919-44.010 36.812-79.334 80.956-79.334 44.72 0 80.973 36.253 80.973 80.973s-36.253 80.973-80.973 80.973c-0.013 0-0.026 0-0.038 0h0.002c-44.842-0.565-80.975-37.049-80.975-81.971 0-0.225 0.001-0.45 0.003-0.675v0.034zM560.679 718.054c22.453 0.012 42.735 9.3 57.222 24.24l0.020 0.020c14.688 15.084 23.746 35.713 23.746 58.457s-9.058 43.373-23.764 58.475l0.018-0.019c-14.496 15.001-34.794 24.314-57.268 24.314s-42.772-9.314-57.246-24.292l-0.022-0.023c-14.639-15.090-23.663-35.699-23.663-58.415 0-22.448 8.813-42.838 23.167-57.898l-0.032 0.034 0.793-0.899c14.504-14.799 34.693-23.978 57.027-23.996h0.003z" />
<glyph unicode="&#xe90d;" glyph-name="shop" horiz-adv-x="1019" d="M775.561 6.967c-0.001 0.125-0.001 0.272-0.001 0.42 0 39.153 31.74 70.893 70.893 70.893 0.099 0 0.197 0 0.296-0.001h-0.015c39.239-0.040 71.032-31.858 71.032-71.102 0-39.269-31.834-71.102-71.102-71.102-39.195 0-70.983 31.714-71.102 70.881v0.011zM288.81 6.967c-0.001 0.104-0.001 0.226-0.001 0.349 0 39.384 31.927 71.312 71.312 71.312s71.312-31.927 71.312-71.312c0-39.36-31.887-71.272-71.237-71.312h-0.004c-0.062 0-0.136 0-0.21 0-39.234 0-71.053 31.746-71.172 70.952v0.011zM351.67 182.907c-50.784 0.143-93.247 35.596-104.14 83.094l-0.139 0.72-99.669 463.283c0 0.768 0 1.537-0.489 2.375l-28.357 127.398h-68.937c-27.619 0-50.009 22.39-50.009 50.009s22.39 50.009 50.009 50.009c0 0 0 0 0 0h109.028c23.782-0.049 43.68-16.621 48.826-38.845l0.066-0.339 28.986-130.261h675.333c0.069 0 0.151 0 0.233 0 58.787 0 106.444-47.657 106.444-106.444 0-7.842-0.848-15.486-2.457-22.845l0.129 0.704-85.002-395.044c-11.050-48.181-53.463-83.609-104.186-83.814h-0.023zM345.314 287.675c0.688-2.864 3.227-4.96 6.256-4.96 0.035 0 0.070 0 0.105 0.001h475.78c3.059 0.055 5.604 2.193 6.277 5.054l0.009 0.044 84.862 394.974c0.108 0.443 0.17 0.952 0.17 1.475 0 1.503-0.511 2.887-1.368 3.988l0.011-0.015c-1.206 1.334-2.944 2.169-4.876 2.169-0.078 0-0.156-0.001-0.234-0.004h-653.6z" />
<glyph unicode="&#xe90e;" glyph-name="small-arrow-down" d="M647.494 19.793c-25.405-50.026-76.478-83.708-135.418-83.708s-110.013 33.682-135.021 82.848l-0.397 0.86-360.459 721.221c-10.067 19.716-15.966 43.005-15.966 67.671 0 83.582 67.733 151.344 151.304 151.39h721.225c83.575-0.046 151.309-67.808 151.309-151.39 0-24.666-5.899-47.955-16.364-68.532l0.397 0.86z" />
<glyph unicode="&#xe90f;" glyph-name="small-arrow-up" d="M376.809 876.355c25.405 50.026 76.478 83.708 135.418 83.708s110.013-33.682 135.021-82.848l0.397-0.86 360.459-721.221c10.067-19.716 15.966-43.005 15.966-67.671 0-83.582-67.733-151.344-151.304-151.39h-721.225c-83.575 0.046-151.309 67.808-151.309 151.39 0 24.666 5.899 47.955 16.364 68.532l-0.397-0.86z" />
<glyph unicode="&#xe910;" glyph-name="snapchat" horiz-adv-x="1088" d="M245.439 545.658c-0.325 7.158-0.542 13.503-0.922 19.739-0.597 9.544-1.627 19.034-1.952 28.524-0.868 23.047-1.952 46.094-2.061 69.196-0.016 1.408-0.025 3.070-0.025 4.735 0 23.684 1.803 46.948 5.279 69.66l-0.32-2.542c4.77 28.128 14.249 53.294 27.668 75.84l-0.554-1.005c14.782 26.323 32.255 48.945 52.536 68.699l0.065 0.063c24.583 23.603 53.591 42.82 85.625 56.253l1.846 0.687c23.285 10.053 50.332 17.655 78.573 21.509l1.631 0.182c15.482 1.983 33.393 3.115 51.569 3.115 8.108 0 16.164-0.225 24.161-0.67l-1.111 0.049c34.176-1.582 66.298-8.288 96.3-19.37l-2.213 0.716c42.661-15.197 78.983-39.037 108.371-69.593l0.087-0.091c27.568-28.39 49.353-62.561 63.348-100.504l0.642-1.988c4.952-14.46 8.561-31.295 10.133-48.717l0.062-0.848c1.967-17.492 3.090-37.769 3.090-58.309 0-7.185-0.137-14.338-0.41-21.456l0.031 1.025c-0.705-23.156-2.278-46.311-3.471-69.467-0.434-8.134-0.813-16.269-1.247-24.674 2.035-0.547 4.372-0.862 6.781-0.862 3.53 0 6.903 0.675 9.996 1.902l-0.183-0.064c10.299 2.871 18.877 5.94 27.178 9.527l-1.365-0.525c8.435 3.917 18.308 6.202 28.716 6.202 9.185 0 17.953-1.78 25.981-5.013l-0.468 0.166c14.415-4.763 26.251-14.054 34.121-26.16l0.152-0.249c4.127-6.784 6.57-14.988 6.57-23.762 0-11.694-4.339-22.374-11.495-30.519l0.045 0.052c-12.937-13.844-29.037-24.567-47.159-31.031l-0.833-0.259c-13.937-5.423-28.416-9.761-42.407-15.13-6.878-2.786-12.786-5.97-18.288-9.706l0.338 0.216c-6.642-3.241-11.137-9.945-11.137-17.698 0-2.941 0.647-5.731 1.806-8.236l-0.050 0.121c5.289-14.466 10.916-26.643 17.393-38.282l-0.691 1.352c16.921-30.593 37.116-56.853 60.652-79.689l0.084-0.081c31.753-32.091 72.255-55.468 117.633-66.258l1.67-0.335c4.935-1.085 10.032-1.681 14.859-3.037 14.959-4.213 25.742-17.736 25.742-33.777 0-5.105-1.092-9.954-3.055-14.328l0.089 0.222c-5.649-12.747-15.054-22.973-26.797-29.501l-0.317-0.162c-15.137-9.308-32.689-16.681-51.363-21.169l-1.239-0.251c-19.848-4.989-39.967-8.731-60.031-12.961-2.33-0.237-4.178-2.029-4.498-4.312l-0.003-0.027c-3.308-13.666-6.291-27.385-10.412-40.834-4.177-14.385-17.237-24.721-32.71-24.721-0.626 0-1.248 0.017-1.865 0.050l0.086-0.004c-14.597 1.023-27.818 2.699-40.802 5.056l2.246-0.338c-13.318 2.454-28.644 3.857-44.297 3.857-4.199 0-8.374-0.101-12.523-0.301l0.585 0.022c-0.122 0-0.265 0.001-0.409 0.001-17.499 0-34.137-3.692-49.175-10.34l0.778 0.307c-12.473-6.453-24.511-13.828-36.279-21.691-18.384-11.876-36.062-24.837-54.608-36.333-22.372-14.197-48.715-24.408-76.963-28.911l-1.181-0.155c-11.665-1.652-25.14-2.596-38.834-2.596-7.88 0-15.687 0.312-23.41 0.925l1.020-0.065c-39.052 2.888-74.572 15.892-104.583 36.373l0.735-0.473c-20.498 13.178-40.238 27.385-60.519 40.888-11.428 8.295-24.903 14.583-39.48 18.016l-0.758 0.15c-12.66 2.592-27.21 4.076-42.108 4.076-3.901 0-7.778-0.102-11.63-0.303l0.539 0.022c-19.088-0.976-37.635-5.423-56.452-8.189-3.652-0.642-7.857-1.009-12.147-1.009s-8.495 0.367-12.585 1.072l0.437-0.062c-14.36 3.095-25.358 14.549-27.737 28.914l-0.028 0.207c-3.091 11.822-5.802 23.698-8.405 35.628-0.396 2.556-2.532 4.505-5.141 4.609h-0.011c-12.961 2.44-26.030 4.609-38.882 7.538-25.214 5.056-47.607 13.048-68.356 23.777l1.438-0.676c-13.034 6.38-23.596 16.089-30.835 28.036l-0.183 0.326c-3.295 5.313-5.249 11.758-5.249 18.659 0 16.287 10.878 30.032 25.765 34.368l0.253 0.063c10.412 2.657 21.041 4.338 31.344 7.321 28.274 8.514 52.863 21.38 74.383 38.024l-0.523-0.389c36.208 27.786 65.91 62.092 87.758 101.367l0.851 1.668c5.157 8.803 10.357 19.306 14.86 30.171l0.65 1.769c2.344 3.618 3.737 8.041 3.737 12.79 0 10.937-7.392 20.148-17.453 22.908l-0.167 0.039c-10.773 5.066-24.45 10.467-38.468 15.122l-2.854 0.821c-19.865 6.128-37.108 15.393-52.104 27.357l0.315-0.243c-11.414 8.702-19.065 21.836-20.376 36.788l-0.014 0.196c-0.038 0.705-0.060 1.53-0.060 2.361 0 15.913 7.943 29.972 20.080 38.427l0.153 0.101c12.273 9.622 27.937 15.43 44.957 15.43 0.724 0 1.446-0.011 2.165-0.031l-0.106 0.002c8.222-0.235 15.927-2.21 22.837-5.568l-0.332 0.146c11.425-5.495 24.72-9.209 38.738-10.384l0.416-0.028c2.603 0.597 5.531 0.759 8.731 0.759z" />
<glyph unicode="&#xe911;" glyph-name="twitter" horiz-adv-x="1250" d="M823.573 960.074h79.532c56.527-10.999 105.6-37.546 144.035-74.966l-0.063 0.061c3.736-2.406 8.299-3.835 13.196-3.835 2.766 0 5.426 0.456 7.907 1.297l-0.173-0.051q50.396 16.523 100.021 35.415c15.256 5.838 29.577 14.1 48.799 23.408-18.858-57.225-54.831-104.527-101.785-137.116l-0.879-0.577 2.864-5.508 132.792 37.728c-29.333-43.659-63.972-80.925-103.612-112.124l-1.035-0.785c-13.142-9.048-21.647-24.009-21.647-40.957 0-0.143 0.001-0.285 0.002-0.428v0.022c-1.663-61.269-8.184-119.855-19.209-176.835l1.088 6.756c-15.084-60.298-33.94-112.526-57.336-162.194l2.259 5.334c-46.043-103.364-113.155-189.949-196.393-257.419l-1.28-1.005c-125.287-100.395-286.138-161.118-461.172-161.118-136.175 0-263.767 36.754-373.394 100.884l3.503-1.893c-7.435 4.131-14.485 9.033-21.701 13.549 7.4-0.284 16.088-0.445 24.815-0.445 60.608 0 119.395 7.797 175.412 22.444l-4.812-1.069c68 20.272 127.144 51.212 178.786 91.347l-1.217-0.91c-115.663 12.172-241.46 110.155-233.033 180.434h98.313c-112.614 34.212-193.292 136.796-194.037 258.337v0.087c32.637-15.653 70.854-25.133 111.199-25.937l0.278-0.004c-52.289 36.327-89.814 90.749-103.625 154.034l-0.306 1.67c-3.884 16.452-6.11 35.341-6.11 54.75 0 47.8 13.505 92.447 36.907 130.332l-0.614-1.068c128.061-154.234 315.443-255.375 526.67-268.182l2.073-0.101c-0.018 9.199-0.517 18.258-1.475 27.18l0.098-1.128c-2.039 11.718-3.204 25.212-3.204 38.978 0 66.32 27.046 126.324 70.711 169.582l0.018 0.018c38.115 40.945 88.398 70.101 145.075 81.709l1.762 0.301z" />
<glyph unicode="&#xe912;" glyph-name="user" horiz-adv-x="902" d="M164.086 28.52c-77.673 56.627-134.486 137.775-159.273 231.916l-0.652 2.912-4.161 16.881 11.065 13.335c4.729 6.005 123.277 146.070 440.006 146.070s435.040-140.064 440.006-146.070l10.923-13.335-4.161-16.881c-25.426-97.047-82.223-178.194-158.69-234.001l-1.187-0.826c-79.55-57.865-179.191-92.573-286.938-92.573s-207.387 34.707-288.352 93.552l1.414-0.979zM149.569 309.783c-28.32-13.79-52.724-30-74.672-48.976l0.431 0.365c24.067-72.918 69.037-133.492 127.761-176.346l1.002-0.697c68.508-49.672 154.254-79.458 246.956-79.458s178.448 29.785 248.189 80.308l-1.232-0.85c59.778 43.49 104.754 104.087 128.007 174.562l0.709 2.48c-21.513 18.574-45.898 34.781-72.182 47.717l-2.011 0.894c-82.363 38.634-178.86 61.18-280.622 61.18-7.326 0-14.624-0.117-21.894-0.349l1.062 0.027c-6.328 0.213-13.767 0.335-21.234 0.335-101.629 0-198.004-22.499-284.414-62.787l4.146 1.736zM247.264 753.666c-0.015 0.923-0.024 2.013-0.024 3.104 0 112.559 91.247 203.807 203.807 203.807s203.807-91.247 203.807-203.807c0-1.092-0.009-2.181-0.026-3.269l0.002 0.164c0.015-0.923 0.024-2.013 0.024-3.104 0-112.559-91.247-203.807-203.807-203.807s-203.807 91.247-203.807 203.807c0 1.092 0.009 2.181 0.026 3.269l-0.002-0.164zM315.168 753.666c0.908-74.362 61.402-134.295 135.893-134.295 75.057 0 135.903 60.846 135.903 135.903 0 75.054-60.84 135.897-135.893 135.903v0c-75.226-0.669-135.951-61.807-135.951-137.127 0-0.135 0-0.27 0.001-0.404v0.021z" />
<glyph unicode="&#xe913;" glyph-name="refresh" horiz-adv-x="878" d="M863.429 347.428c0-1.143 0-2.857-0.571-4-48.571-202.286-215.429-343.429-426.286-343.429-111.429 0-219.429 44-300.571 121.143l-73.714-73.714c-6.857-6.857-16-10.857-25.714-10.857-20 0-36.571 16.571-36.571 36.571v256c0 20 16.571 36.571 36.571 36.571h256c20 0 36.571-16.571 36.571-36.571 0-9.714-4-18.857-10.857-25.714l-78.286-78.286c53.714-50.286 125.143-78.857 198.857-78.857 101.714 0 196 52.571 249.143 139.429 13.714 22.286 20.571 44 30.286 66.857 2.857 8 8.571 13.143 17.143 13.143h109.714c10.286 0 18.286-8.571 18.286-18.286zM877.714 804.571v-256c0-20-16.571-36.571-36.571-36.571h-256c-20 0-36.571 16.571-36.571 36.571 0 9.714 4 18.857 10.857 25.714l78.857 78.857c-54.286 50.286-125.714 78.286-199.429 78.286-101.714 0-196-52.571-249.143-139.429-13.714-22.286-20.571-44-30.286-66.857-2.857-8-8.571-13.143-17.143-13.143h-113.714c-10.286 0-18.286 8.571-18.286 18.286v4c49.143 202.857 217.714 343.429 428.571 343.429 112 0 221.143-44.571 302.286-121.143l74.286 73.714c6.857 6.857 16 10.857 25.714 10.857 20 0 36.571-16.571 36.571-36.571z" />
<glyph unicode="&#xe914;" glyph-name="trash" d="M441.932 199.693c-20.080 0-36.357 16.278-36.357 36.357v0 228.092c0 20.080 16.278 36.357 36.357 36.357v0c20.080 0 36.357-16.278 36.357-36.357v0-228.092c0-20.080-16.278-36.357-36.357-36.357v0zM613.016 199.693c-20.080 0-36.357 16.278-36.357 36.357v0 228.092c0 20.080 16.278 36.357 36.357 36.357v0c20.080 0 36.357-16.278 36.357-36.357v0-228.092c0-20.080-16.278-36.357-36.357-36.357v0zM855.36 598.869h-684.276c-20.080 0-36.357 16.278-36.357 36.357v0c0 20.080 16.278 36.357 36.357 36.357v0h684.276c20.080 0 36.357-16.278 36.357-36.357v0c0-20.080-16.278-36.357-36.357-36.357v0zM682.589 27.912h-341.411c-66.507 0.123-120.5 53.524-121.578 119.791l-0.001 0.101-38.684 480.558c-0.074 0.871-0.117 1.885-0.117 2.909 0 20.080 16.278 36.358 36.358 36.358 19.056 0 34.688-14.66 36.232-33.318l0.009-0.131 38.801-481.896q0-1.454 0-2.909c0.033-27.038 21.943-48.948 48.977-48.981h341.356c27.038 0.033 48.948 21.943 48.981 48.977v0.003q0 1.454 0 2.909l38.975 481.896c1.553 18.789 17.185 33.449 36.241 33.449 20.080 0 36.358-16.278 36.358-36.358 0-1.024-0.042-2.038-0.125-3.040l0.009 0.131-38.859-480.558c-1.079-66.348-55.039-119.737-121.506-119.892h-0.015zM639.949 624.988c-20.080 0-36.357 16.278-36.357 36.357v0 127.978c-0.033 3.457-2.826 6.25-6.279 6.283h-170.679c-3.457-0.033-6.25-2.826-6.283-6.279v-127.981c0-20.080-16.278-36.357-36.357-36.357s-36.357 16.278-36.357 36.357v0 127.978c0.033 43.628 35.375 78.989 78.991 79.056h170.682c43.602-0.066 78.931-35.395 78.997-78.991v-127.984c0-0.017 0-0.038 0-0.058 0-20.080-16.278-36.357-36.357-36.357v0z" />
<glyph unicode="&#xe915;" glyph-name="check-square" horiz-adv-x="955" d="M804.571 419.428v-181.714c0-90.857-73.714-164.571-164.571-164.571h-475.429c-90.857 0-164.571 73.714-164.571 164.571v475.429c0 90.857 73.714 164.571 164.571 164.571h475.429c22.857 0 45.714-4.571 66.857-14.286 5.143-2.286 9.143-7.429 10.286-13.143 1.143-6.286-0.571-12-5.143-16.571l-28-28c-3.429-3.429-8.571-5.714-13.143-5.714-1.714 0-3.429 0.571-5.143 1.143-8.571 2.286-17.143 3.429-25.714 3.429h-475.429c-50.286 0-91.429-41.143-91.429-91.429v-475.429c0-50.286 41.143-91.429 91.429-91.429h475.429c50.286 0 91.429 41.143 91.429 91.429v145.143c0 4.571 1.714 9.143 5.143 12.571l36.571 36.571c4 4 8.571 5.714 13.143 5.714 2.286 0 4.571-0.571 6.857-1.714 6.857-2.857 11.429-9.143 11.429-16.571zM936.571 698.857l-465.143-465.143c-18.286-18.286-46.857-18.286-65.143 0l-245.714 245.714c-18.286 18.286-18.286 46.857 0 65.143l62.857 62.857c18.286 18.286 46.857 18.286 65.143 0l150.286-150.286 369.714 369.714c18.286 18.286 46.857 18.286 65.143 0l62.857-62.857c18.286-18.286 18.286-46.857 0-65.143z" />
<glyph unicode="&#xe916;" glyph-name="check" d="M954.857 627.428c0-14.286-5.714-28.571-16-38.857l-491.429-491.429c-10.286-10.286-24.571-16-38.857-16s-28.571 5.714-38.857 16l-284.571 284.571c-10.286 10.286-16 24.571-16 38.857s5.714 28.571 16 38.857l77.714 77.714c10.286 10.286 24.571 16 38.857 16s28.571-5.714 38.857-16l168-168.571 374.857 375.429c10.286 10.286 24.571 16 38.857 16s28.571-5.714 38.857-16l77.714-77.714c10.286-10.286 16-24.571 16-38.857z" />
<glyph unicode="&#xe917;" glyph-name="download" horiz-adv-x="951" d="M731.429 182.857c0 20-16.571 36.571-36.571 36.571s-36.571-16.571-36.571-36.571 16.571-36.571 36.571-36.571 36.571 16.571 36.571 36.571zM877.714 182.857c0 20-16.571 36.571-36.571 36.571s-36.571-16.571-36.571-36.571 16.571-36.571 36.571-36.571 36.571 16.571 36.571 36.571zM950.857 310.857v-182.857c0-30.286-24.571-54.857-54.857-54.857h-841.143c-30.286 0-54.857 24.571-54.857 54.857v182.857c0 30.286 24.571 54.857 54.857 54.857h265.714l77.143-77.714c21.143-20.571 48.571-32 77.714-32s56.571 11.429 77.714 32l77.714 77.714h265.143c30.286 0 54.857-24.571 54.857-54.857zM765.143 636c5.714-13.714 2.857-29.714-8-40l-256-256c-6.857-7.429-16.571-10.857-25.714-10.857s-18.857 3.429-25.714 10.857l-256 256c-10.857 10.286-13.714 26.286-8 40 5.714 13.143 18.857 22.286 33.714 22.286h146.286v256c0 20 16.571 36.571 36.571 36.571h146.286c20 0 36.571-16.571 36.571-36.571v-256h146.286c14.857 0 28-9.143 33.714-22.286z" />
<glyph unicode="&#xe918;" glyph-name="cloud-download" horiz-adv-x="1097" d="M731.429 420.571c0 10.286-8 18.286-18.286 18.286h-128v201.143c0 9.714-8.571 18.286-18.286 18.286h-109.714c-9.714 0-18.286-8.571-18.286-18.286v-201.143h-128c-10.286 0-18.286-8.571-18.286-18.286 0-4.571 1.714-9.714 5.143-13.143l201.143-201.143c3.429-3.429 8-5.143 13.143-5.143 4.571 0 9.714 1.714 13.143 5.143l200.571 200.571c3.429 4 5.714 8.571 5.714 13.714zM1097.143 292.571c0-121.143-98.286-219.429-219.429-219.429h-621.714c-141.143 0-256 114.857-256 256 0 99.429 57.714 189.714 147.429 231.429-0.571 8.571-1.143 16.571-1.143 24.571 0 161.714 130.857 292.571 292.571 292.571 118.857 0 225.714-72 270.857-181.714 26.286 22.857 60 35.429 94.857 35.429 80.571 0 146.286-65.714 146.286-146.286 0-28-8-55.429-23.429-78.857 99.429-23.429 169.714-112 169.714-213.714z" />
<glyph unicode="&#xe919;" horiz-adv-x="1050" d="M525.128 960c1.933 0.026 4.216 0.041 6.501 0.041 284.123 0 514.887-228.453 518.623-511.689l0.004-0.352c-3.74-283.588-234.504-512.041-518.627-512.041-2.286 0-4.568 0.015-6.847 0.044l0.346-0.004c-1.933-0.026-4.216-0.041-6.501-0.041-284.123 0-514.887 228.453-518.623 511.689l-0.004 0.352c3.74 283.588 234.504 512.041 518.627 512.041 2.286 0 4.568-0.015 6.847-0.044l-0.346 0.004z" />
<glyph unicode="&#xe91a;" horiz-adv-x="1050" d="M759.283 701.532l-17.644-99.249h-210.051l-19.325-111.012h157.538l-17.854-95.783h-157.538l-36.759-210.051h-125.506l91.162 516.096z" />
<glyph unicode="&#xe91b;" glyph-name="plus-square" horiz-adv-x="878" d="M731.429 402.286v73.143c0 20-16.571 36.571-36.571 36.571h-182.857v182.857c0 20-16.571 36.571-36.571 36.571h-73.143c-20 0-36.571-16.571-36.571-36.571v-182.857h-182.857c-20 0-36.571-16.571-36.571-36.571v-73.143c0-20 16.571-36.571 36.571-36.571h182.857v-182.857c0-20 16.571-36.571 36.571-36.571h73.143c20 0 36.571 16.571 36.571 36.571v182.857h182.857c20 0 36.571 16.571 36.571 36.571zM877.714 713.143v-548.571c0-90.857-73.714-164.571-164.571-164.571h-548.571c-90.857 0-164.571 73.714-164.571 164.571v548.571c0 90.857 73.714 164.571 164.571 164.571h548.571c90.857 0 164.571-73.714 164.571-164.571z" />
<glyph unicode="&#xe91c;" glyph-name="plus-circle" horiz-adv-x="878" d="M694.857 402.286v73.143c0 20-16.571 36.571-36.571 36.571h-146.286v146.286c0 20-16.571 36.571-36.571 36.571h-73.143c-20 0-36.571-16.571-36.571-36.571v-146.286h-146.286c-20 0-36.571-16.571-36.571-36.571v-73.143c0-20 16.571-36.571 36.571-36.571h146.286v-146.286c0-20 16.571-36.571 36.571-36.571h73.143c20 0 36.571 16.571 36.571 36.571v146.286h146.286c20 0 36.571 16.571 36.571 36.571zM877.714 438.857c0-242.286-196.571-438.857-438.857-438.857s-438.857 196.571-438.857 438.857 196.571 438.857 438.857 438.857 438.857-196.571 438.857-438.857z" />
<glyph unicode="&#xe91d;" glyph-name="plus" horiz-adv-x="805" d="M804.571 530.286v-109.714c0-30.286-24.571-54.857-54.857-54.857h-237.714v-237.714c0-30.286-24.571-54.857-54.857-54.857h-109.714c-30.286 0-54.857 24.571-54.857 54.857v237.714h-237.714c-30.286 0-54.857 24.571-54.857 54.857v109.714c0 30.286 24.571 54.857 54.857 54.857h237.714v237.714c0 30.286 24.571 54.857 54.857 54.857h109.714c30.286 0 54.857-24.571 54.857-54.857v-237.714h237.714c30.286 0 54.857-24.571 54.857-54.857z" />
<glyph unicode="&#xe91e;" glyph-name="minus-square" horiz-adv-x="878" d="M731.429 402.286v73.143c0 20-16.571 36.571-36.571 36.571h-512c-20 0-36.571-16.571-36.571-36.571v-73.143c0-20 16.571-36.571 36.571-36.571h512c20 0 36.571 16.571 36.571 36.571zM877.714 713.143v-548.571c0-90.857-73.714-164.571-164.571-164.571h-548.571c-90.857 0-164.571 73.714-164.571 164.571v548.571c0 90.857 73.714 164.571 164.571 164.571h548.571c90.857 0 164.571-73.714 164.571-164.571z" />
<glyph unicode="&#xe91f;" glyph-name="minus" horiz-adv-x="805" d="M804.571 530.286v-109.714c0-30.286-24.571-54.857-54.857-54.857h-694.857c-30.286 0-54.857 24.571-54.857 54.857v109.714c0 30.286 24.571 54.857 54.857 54.857h694.857c30.286 0 54.857-24.571 54.857-54.857z" />
</font>
</defs>
</svg>
